#TITLE:Gekkakou;
#SUBTITLE:SDO China lv23 - [N]hok[Q] Simfile;
#ARTIST:Yousei Teikoku;
#TITLETRANSLIT:;
#SUBTITLETRANSLIT:;
#ARTISTTRANSLIT:;
#CREDIT:[N]hok[Q] ;
#BANNER:bn-Gekkakou.png;
#BACKGROUND:bg-Gekkakou.png;
#LYRICSPATH:;
#CDTITLE:cd-Gekkakou.png;
#MUSIC:Gekkakou.mp3;
#OFFSET:-0.308;
#SAMPLESTART:23.933;
#SAMPLELENGTH:12.000;
#SELECTABLE:YES;
#DISPLAYBPM:160.000;
#BPMS:0.000=160.000;
#STOPS:;
#BGCHANGES:;
// cache tags:
#FIRSTBEAT:23.000;
#LASTBEAT:380.000;
#SONGFILENAME:Songs/SDO pack 4/Gekkakou/Gekkakou.sm;
#HASMUSIC:1;
#HASBANNER:1;
#MUSICLENGTH:143.067;
// end cache tags

//---------------dance-single - ----------------
#NOTES:
     dance-single:
     :
     Hard:
     23:
     1.000,1.000,1.000,0.349,0.322,748.000,285.000,50.000,0.000,97.000:
0000
0000
0000
0000
,
0000
0000
0000
0000
,
0000
0000
0000
0000
,
0000
0000
0000
0000
,
0000
0000
0000
0000
,
0000
0000
0000
2000
,
0000
0000
0000
0000
0000
0000
3110
0010
,
0110
0100
0011
0001
1100
1000
0101
0001
,
1010
1000
0110
0100
1001
0001
0110
0100
,
0110
0010
1100
1000
0011
0001
1001
1000
,
0110
0012
1100
1000
0110
0100
1013
1000
,
0101
0001
0110
0010
1001
0210
0000
0310
,
1001
0001
1010
1000
0110
0010
1001
1000
,
0011
0001
1010
1000
0110
0010
0110
0100
,
0011
0001
1100
1000
0001
0001
0000
0000
,
0000
0000
0200
0000
0000
0000
0000
0000
0001
0010
1000
0001
1320
0000
1000
0000
,
1001
0001
1000
0100
1032
1000
2103
0010
,
3210
0000
0001
0000
0321
0000
1000
0000
1031
0100
0010
0001
2100
0000
0001
0000
,
0011
0100
0001
0100
0011
0100
3012
0100
,
1100
0000
0010
0000
1003
1000
0010
0000
1100
1000
0010
0001
1200
0000
0001
0000
,
0011
0001
1000
0001
1301
0001
0120
0001
,
1230
0000
0001
0000
2301
0000
0001
0000
3011
0010
0100
1000
0011
0000
0000
0000
,
0011
1100
1001
0000
1001
0110
1001
0001
,
1100
0000
0001
0000
1010
0000
0010
0000
1100
1000
0001
0001
0110
0000
0100
0000
,
0110
0010
1001
1000
0110
1001
0000
1000
,
1001
0001
0110
0100
0110
0010
1001
0001
,
1001
1000
0110
0100
0110
1001
0000
0001
,
1001
0000
0001
0000
1001
0001
0100
0000
0110
0000
0010
0000
1001
0000
1000
0000
,
1001
0001
0110
0100
0110
1001
0000
0001
,
1001
1000
0110
0010
0110
0100
0110
0100
,
0110
0010
1001
0001
1001
0110
0000
1000
,
1102
0000
0010
0000
1010
1000
0100
0000
1100
0000
1010
0000
1203
0000
0010
0000
,
0011
0001
1000
0010
0321
1000
2130
0001
,
3210
0000
0001
0000
0312
0000
1000
0000
1103
1000
0010
0100
1020
0000
0001
0000
,
1100
0001
1000
0001
1100
1000
1032
0010
,
1100
0000
0010
0000
1003
1000
0010
0000
1100
0000
0001
0000
2100
0000
0001
0000
,
0011
0100
0001
0100
3021
0100
1032
1000
,
0123
0000
1000
0000
1230
0000
0001
0000
0301
0010
0100
1000
0011
0000
0000
0000
,
0011
1100
1100
0000
1100
0011
1100
1000
,
0011
0000
0001
0000
0100
0100
0010
0000
1000
0100
0010
0001
0210
0000
0000
0000
,
0010
0000
0001
0001
1000
1000
0001
0001
1000
1000
0001
0001
1310
0000
1000
0000
,
0011
0001
1010
1000
0011
0001
0110
0100
,
0011
1000
0110
0100
0011
0001
1010
0010
,
0011
1000
0101
0001
1100
1000
0011
0001
,
1100
0000
0001
0000
0100
0010
0100
0000
0011
0000
0001
0000
1001
0000
0001
0000
,
1001
1000
0110
0100
0110
0010
1100
1000
,
0011
1100
1001
0001
1001
1000
0110
0010
,
0110
0000
0100
0000
1001
0000
0001
0000
1000
0100
0010
0001
1000
0000
0011
0000
,
1000
0000
0011
0000
1000
1000
0010
0001
0100
0100
0010
0000
1001
0000
0001
0000
,
1001
1000
1001
0001
0110
1001
1000
0001
,
0110
0100
0110
0010
0110
0100
1100
0001
,
1100
0001
0110
0010
1001
0110
0010
0100
,
0110
0000
0010
0000
0100
0010
0100
0000
0011
0000
0001
0000
1010
0000
1000
0000
,
0101
0001
0110
0010
0110
1001
1000
0001
,
0110
0100
0110
0010
0110
0100
1001
1000
,
1001
0000
0001
0000
0110
0000
0010
0000
0110
0000
1001
0001
0100
0000
0010
0000
,
1100
0000
1000
0000
0010
0100
0010
0000
0100
0100
0001
0010
1100
0000
0001
0001
,
1100
0000
0000
0000
0000
0000
0000
0000
0000
0000
0001
0001
0100
0100
0010
0010
,
1100
0000
0000
0000
0000
0000
0000
0000
0000
0000
0000
0000
0100
0100
0010
0010
,
1100
0000
0000
0000
0000
0000
0000
0000
0000
0000
0001
0001
0100
0100
0010
0010
,
1100
0000
0000
0000
0100
0010
1000
0000
0011
0000
0100
0000
1000
1000
0000
0001
,
0110
0000
0010
0010
0000
0100
0100
0000
0011
0000
1000
0000
0010
0010
0100
0000
,
0011
0000
1000
1000
0000
0100
0010
0000
1100
0000
0001
0000
0110
0000
0100
0000
,
0011
0000
1000
1000
0100
0010
0010
0000
1100
0000
0001
0000
0100
0100
0010
0000
,
1100
0000
0001
0001
0010
0010
0100
0000
0011
0000
1000
0000
0012
0000
1000
1000
,
0110
0000
1000
0000
0100
0100
0010
0000
1100
0000
0010
0000
2103
0100
0010
0000
,
0011
0000
0100
0000
0010
0010
0100
0000
0011
0000
0100
0000
3021
0000
0100
0100
,
1001
0000
0001
0000
1000
1000
0100
0000
1100
0000
0100
0000
1000
1000
0100
0000
,
1001
0000
1000
1000
0000
0100
0100
0000
1100
0000
1030
0000
1001
0000
0000
0000
,
0000
0000
0000
0000
0001
1000
0000
1000
0011
0000
1100
0000
0012
0000
0000
0000
,
1000
0000
0000
0000
2103
0100
0010
0000
3201
0000
0010
0000
2301
0000
0010
0010
,
0101
0000
0100
0000
3012
0010
0100
0000
1013
0000
0110
0000
1220
0000
0000
0000
,
0001
0000
0000
0000
1000
1000
0001
0000
1331
0000
1000
0000
0012
0000
1000
1000
,
0110
0000
0010
0000
2103
0000
0010
0000
3012
0000
1100
0000
1103
0000
0000
1100
,
0000
0000
1100
0000
1001
0000
0000
0110
0000
0000
0110
0000
0011
0000
0000
0011
,
0000
0000
0011
0000
1001
0000
0000
0110
0000
0000
0110
0000
2102
0000
0000
0000
,
0010
0000
0000
0000
0100
0100
0010
0000
3113
0000
0110
0000
0120
0000
1000
0000
,
1000
0000
1000
0000
2132
0100
0010
0000
0100
0100
0010
0010
3103
0000
0010
0000
,
1100
1000
0010
0100
0011
0001
0100
0010
,
1100
0001
0010
0100
0011
1000
0100
0010
,
1100
1000
0010
0100
0011
0001
0100
0010
,
1100
0000
0001
0000
0100
0010
0100
0000
0011
0000
0001
0000
0100
0000
0010
0000
,
1100
1000
0100
0010
1100
1000
0010
0100
,
0011
0001
0010
0100
0011
0001
0100
0010
,
1001
1000
0100
0010
1001
0001
0100
0010
,
1100
0000
1000
0000
0100
0010
0100
0000
0011
0000
1000
0000
1221
0000
0000
0000
,
0001
0000
1000
1000
0001
1000
0001
0001
1000
1000
0001
0001
1330
0000
0001
0000
,
1100
1000
1000
0001
1100
0001
0010
0100
,
0011
0001
0010
0100
0011
1000
0010
0100
,
0011
1000
0010
0100
0011
1000
0010
0100
,
0011
0000
1000
0000
0010
0100
0010
0000
1100
0000
0001
0000
1001
0000
1000
0000
,
0110
0010
0110
0100
0110
1001
1000
0001
,
0110
0100
0110
0010
0110
0100
0011
0001
,
1100
1000
1001
0001
0110
1001
1010
1000
,
0210
0000
0001
0000
0010
0001
1000
0000
0011
0000
1000
0000
1301
0000
1000
0000
,
1001
0000
0000
0000
;

//---------------dance-solo - ----------------
#NOTES:
     dance-solo:
     :
     Hard:
     23:
     1.000,1.000,1.000,0.349,0.322,746.000,285.000,50.000,0.000,97.000:
000000
000000
000000
000000
,
000000
000000
000000
000000
,
000000
000000
000000
000000
,
000000
000000
000000
000000
,
000000
000000
000000
000000
,
000000
000000
000000
020000
,
000000
000000
000000
000000
000000
000000
031100
000001
,
001001
001000
100010
000010
010100
010000
001010
000010
,
010100
010000
100100
100000
010010
000010
001100
001000
,
001001
000001
011000
010000
000110
000010
010010
100000
,
010100
000120
011000
100000
010100
001000
010130
010000
,
001010
000001
001010
000001
010001
002010
000000
003100
,
010010
000001
010010
100000
010100
000100
010010
010000
,
000101
000001
100100
100000
010100
000100
001001
001000
,
000110
000010
101000
100000
000010
000010
000000
000000
,
002000
000000
000000
000000
000000
000000
000000
000000
000010
000100
010000
000001
103200
000000
100000
000000
,
010001
000001
010000
100000
010320
100000
021030
000100
,
032010
000000
000001
000000
003201
000000
100000
000000
100310
010000
001000
000001
021000
000000
000001
000000
,
000110
001000
000001
001000
000101
001000
030120
001000
,
101000
000000
000100
000000
100030
100000
000100
000000
010001
010000
000100
000010
102000
000000
000001
000000
,
000101
000010
010000
000010
013001
000001
100200
000001
,
012300
000000
000010
000000
023001
000000
000010
000000
030101
000100
001000
100000
000101
000000
000000
000000
,
000101
101000
100010
000000
010001
001010
010001
000001
,
101000
000000
000010
000000
100100
000000
000100
000000
011000
010000
000010
000010
100100
000000
100000
000000
,
001001
000001
010010
010000
100100
010010
000000
010000
,
010001
000001
001100
100000
100100
000100
010010
000001
,
010001
100000
010100
010000
001100
010010
000000
000010
,
010001
000000
000001
000000
010001
000010
001000
000000
001100
000000
000100
000000
100010
000000
100000
000000
,
010010
000010
100100
100000
100100
010010
000000
000010
,
010010
010000
001001
000001
001001
001000
001100
100000
,
100100
000100
010010
000001
010001
001010
000000
010000
,
101020
000000
000100
000000
100100
100000
001000
000000
101000
000000
100001
000000
012030
000000
000100
000000
,
000101
000001
010000
100000
003201
100000
021300
000010
,
032001
000000
100000
000000
003120
000000
010000
000000
101030
100000
000001
001000
010200
000000
000001
000000
,
110000
000010
010000
000010
101000
100000
010320
000001
,
011000
000000
000100
000000
100030
100000
000100
000000
010001
000000
000010
000000
021000
000000
000001
000000
,
000101
001000
000010
100000
030201
001000
100320
100000
,
001230
000000
100000
000000
102300
000000
000010
000000
003001
000010
001000
010000
000101
000000
000000
000000
,
000101
101000
101000
000000
101000
000101
010010
010000
,
000101
000000
000001
000000
001000
001000
000100
000000
010000
100000
000100
000010
010001
000000
000000
000000
,
002100
000000
000010
000010
100000
100000
000010
000010
100000
100000
000010
000010
013100
000000
010000
000000
,
000101
000001
010100
010000
000101
000010
100100
100000
,
000110
010000
100100
001000
000110
000010
010100
000100
,
000101
010000
001001
000001
101000
100000
000110
000010
,
101000
000000
000001
000000
001000
000010
001000
000000
000101
000000
000001
000000
010001
000000
000010
000000
,
100010
100000
010100
010000
001001
000001
011000
100000
,
000101
101000
100001
000001
010010
010000
001100
000001
,
001001
000000
001000
000000
100010
000000
000010
000000
100000
010000
000100
000001
010000
000000
000101
000000
,
010000
000000
000101
000000
100000
100000
000100
000010
001000
001000
000100
000000
010001
000000
000001
000000
,
100001
100000
100010
000010
001010
100001
100000
000010
,
001100
010000
010100
000001
001001
001000
101000
000010
,
101000
000001
001010
000010
010010
001100
000100
100000
,
100100
000000
000001
000000
100000
000001
001000
000000
000110
000000
000010
000000
010100
000000
010000
000000
,
001010
000001
010010
000010
010100
100010
010000
000001
,
001010
100000
100010
000010
100100
001000
010010
010000
,
010010
000000
000010
000000
001100
000000
000001
000000
001001
000000
010010
000010
100000
000000
000100
000000
,
110000
000000
010000
000000
000100
001000
000100
000000
001000
001000
000010
000100
101000
000000
000010
000010
,
101000
000000
000000
000000
000000
000000
000000
000000
000000
000000
000010
000010
001000
001000
000100
000100
,
101000
000000
000000
000000
000000
000000
000000
000000
000000
000000
000000
000000
001000
001000
000010
000010
,
011000
000000
000000
000000
000000
000000
000000
000000
000000
000000
000001
000001
000100
000100
000010
000010
,
101000
000000
000000
000000
001000
000100
010000
000000
100010
000000
001000
000000
010000
010000
000000
000010
,
001100
000000
100000
100000
000000
001000
001000
000000
000101
000000
010000
000000
000100
001000
010000
000000
,
000110
000000
100000
100000
000000
010000
000100
000000
011000
000000
000001
000000
001010
000000
001000
000000
,
000110
000000
100000
100000
010000
000100
000100
000000
011000
000000
000010
000000
001000
001000
000100
000000
,
011000
000000
000001
000001
000010
000010
001000
000000
000101
000000
010000
000000
000120
000000
100000
100000
,
010100
000000
100000
000000
010000
010000
000100
000000
101000
000000
000100
000000
021030
001000
000001
000000
,
000011
000000
001000
000000
000100
000100
001000
000000
100010
000000
001000
000000
030210
000000
100000
100000
,
010001
000000
000010
000000
010000
100000
001000
000000
101000
000000
001000
000000
100000
100000
001000
000000
,
010010
000000
010000
010000
000000
000001
000001
000000
010001
000000
010300
000000
010010
000000
000000
000000
,
000000
000000
000000
000000
000010
100000
000000
100000
000101
000000
101000
000000
000120
000000
000000
000000
,
010000
000000
000000
000000
021030
001000
000001
000000
032010
000000
000100
000000
023001
000000
000100
000100
,
100010
000000
100000
000000
030120
000100
001000
000000
100031
000000
001001
000000
012200
000000
000000
000000
,
000010
000000
000000
000000
010000
010000
000010
000000
103310
000000
100000
000000
000120
000000
010000
010000
,
001001
000000
000001
000000
021030
000000
000100
000000
030102
000000
101000
000000
101003
000000
000000
010100
,
000000
000000
010100
000000
010001
000000
000000
001010
000000
000000
001010
000000
100100
000000
000000
100100
,
000000
000000
000101
000000
010001
000000
000000
001100
000000
000000
001100
000000
021020
000000
000000
000000
,
000100
000000
000000
000000
100000
100000
000100
000000
031031
000000
001001
000000
001200
000000
010000
000000
,
100000
000000
100000
000300
021020
001000
000001
000000
100000
100000
000100
000100
031030
000000
000001
000000
,
101000
100000
000100
001000
000101
000001
001000
000100
,
100001
000010
000100
100000
000110
010000
001000
000100
,
101000
100000
000100
001000
000101
000001
001000
000100
,
110000
000000
000010
000000
100000
000100
001000
000000
000101
000000
000001
000000
001000
000000
000100
000000
,
101000
100000
001000
000001
010010
010000
000100
001000
,
000101
000001
100000
001000
100010
000010
001000
000100
,
010010
100000
001000
000100
010001
000001
001000
000100
,
101000
000000
100000
000000
001000
000001
001000
000000
000011
000000
010000
000000
012210
000000
000000
000000
,
000010
000000
100000
100000
000010
100000
000001
000001
010000
010000
000001
000001
013300
000000
000010
000000
,
101000
100000
010000
000010
011000
000010
000100
001000
,
000101
000001
000100
001000
100010
010000
100000
001000
,
000110
010000
000001
001000
000011
010000
000100
001000
,
000110
000000
010000
000000
000100
100000
000100
000000
110000
000000
000010
000000
010010
000000
010000
000000
,
001100
000001
001001
100000
100100
010010
010000
000010
,
001100
001000
001001
000001
100100
100000
000110
000010
,
101000
100000
010010
000001
001010
010001
100100
100000
,
002100
000000
000001
000000
000100
000001
100000
000000
000110
000000
010000
000000
013010
000000
000000
000000
,
000000
000000
000000
000000
;
